DNS SERVER AENDERNum der staatlichen Zensur zu umgehen. Sollten wir von eurem Provider geseprrt werden, nutzt den TOR BROWSER oder ändert euren DNS SERVER.

Filmwünsche können bei uns im Forum abgegeben werden

Wir Speichern Nicht




 
 
 
Top Releases
American.Animals.2018.German...
Aufbruch.zum.Mond.2018.Germa...
Aufbruch.zum.Mond.2018.Germa...
Aufbruch.zum.Mond.2018.Germa...
Die.Unglaublichen.2.2018.Ger...
Die.Unglaublichen.2.2018.Ger...
Take.The.Ball.Pass.The.Ball....
Take.The.Ball.Pass.The.Ball....
Upgrade.German.DL.AC3.Dubbed...
Upgrade.German.DL.AC3.Dubbed...

Cinedubs
Dont.Worry.weglaufen.geht.ni...
Dont.Worry.weglaufen.geht.ni...
Gaensehaut.2.Gruseliges.Hall...
Aquaman.TS.LD.German.DL.720p...
Eho.Echo.German.720p.WEBRip....
Eho.Echo.German.1080p.WEBRip...
Bad.Times.at.the.El.Royale.2...
Bad.Spies.2018.German.DL.AC3...
Aquaman.2018.GERMAN.AC3.MD.7...
Bad.Spies.German.DL.AC3.Dubb...

Neuerscheinungen 2018-19
Escape.Plan.2.Hades.2018.Ger...
DIAZ.Dont.Clean.Up.This.Bloo...
Der.Honorarkonsul.Beyond.the...
Take.The.Ball.Pass.The.Ball....
Predator.Upgrade.2018.MULTi....
Solo.2018.German.1080p.WEB.x...
Solo.2018.German.720p.WEB.x2...
The.Last.Laugh.2019.German.D...
Night.School.EXTENDED.German...
Night.School.EXTENDED.German...

XXX
MyLifeInMiami.18.12.05.Vina....
Lustery.E157.Maya.And.Edward...
NinaKayy.17.05.12.Foot.Teasi...
NataliaStarr.18.03.09.Sexy.W...
NataliaStarr.18.03.09.Heatin...
NataliaStarr.18.03.09.Cummin...
NHLPCentral.18.12.26.April.P...
NinaKayy.17.05.06.Foot.Domin...
MomXXX.18.12.27.Kiki.Minaj.X...
MyLifeInMiami.18.12.21.Kitty...
MommyBlowsBest.18.12.26.Lexi...
NinaKayy.17.05.09.Sexting.Yo...
MyLifeInMiami.18.11.30.Brook...
NataliaStarr.18.03.09.Riding...
MyLifeInMiami.18.12.21.Megan...
MassageRooms.18.12.26.Angel....
MomsBangTeens.18.12.25.Cory....
NHLPCentral.18.12.20.Tindra....
NinaKayy.17.05.14.Betty.Bang...
NinaKayy.17.05.01.Netflix.Ch...

3D
Walhalla.Rising.3D.2009.DUAL...
Sleepwalker.3D.2011.DUAL.COM...
Bis.an.die.Grenzen.des.Unive...
Best.of.3D.vol.13.-.15.GERMA...
Limbradur.und.die.Magie.der....
Kaluoka.Hina.Das.Zauberriff....
Limbradur.und.die.Magie.der....
Smallfoot.3D.2018.COMPLETE.B...
Smallfoot.Ein.eisigartiges.A...
Skyscraper.3D.2018.German.DL...
Meg.3D.2018.MULTi.COMPLETE.B...
Meg.3D.2018.German.DL.1080p....
Gans.im.Glueck.3D.2018.MULTi...
The.Art.of.Flight.3D.2011.Ge...
The.End.Of.The.World.3D.2010...

Old_Stuff
Todfreunde.aka.Bad.Influence...
Animatrix.2003.German.DL.108...
Animatrix.2003.German.DL.720...
Akte.X.S06.German.DTS.DL.108...
The.Beauty.of.Gemina.Minor.S...
ZZ.Top.Live.from.Texas.2008....
Peter.Hase.2018.German.DL.10...
Akte.X.S05.German.DTS.DL.108...
Akte.X.S04.German.DTS.DL.108...
Akte.X.S03.German.DTS.DL.108...
Dunkirk.1958.COMPLETE.BLURAY...
Das.Wunder.von.Manhattan.199...
The.Amazing.Spiderman.2.Rise...
Rise.of.the.Predator.2014.Ge...
Detective.Dee.und.das.Geheim...

Filme
Neues.vom.Hexer.1965.German....
Ticket.zum.Mond.2019.GERMAN....
Die.Anden.-.Natur.am.Limit.E...
Die.Anden.-.Natur.am.Limit.E...
Shadow.Dancer.2012.German.DL...
Shadow.of.the.Vampire.2000.G...
Ueberleben.auf.dem.Mond.GERM...
Aufbruch.zum.Mond.2018.Germa...
Aufbruch.zum.Mond.2018.Germa...
Escape.Plan.2013.German.AC3....
Der.Baader.Meinhof.Komplex.2...
Sex.Education.S01.COMPLETE.G...
BlacKkKlansman.2018.German.D...
Zuhause.ist.es.am.schoensten...
Gunpowder.S01.COMPLETE.Germa...
Quantico.S03.COMPLETE.GERMAN...
Quantico.S03.COMPLETE.GERMAN...
Montclare.-.Erbe.des.Grauens...
Drachenzaehmen.leicht.gemach...
20000 Meilen.unter.dem.Meer....
Der.gruene.Bogenschuetze.196...
Die.Prinzessin.und.der.flieg...
American.Animals.2018.German...
American.Animals.2018.German...

 
 
Escape.Plan.2013.German.AC3.1080p.BluRay.x265-GTF

Jahr: 2013
Genre: Thriller , Action
Sprache: Deutsch AC3
Laufzeit: 1h 55mn
Bitrate: 1 451 Kbps
Format: MKV
Größe: 1.17 GiB
Release:

Beschreibung:

Ray Breslin (Sylvester Stallone) ist einer der besten Sicherheitsexperten der Welt. Mit seinen Kenntnissen ist er in der Lage, aus jedem Gefängnis auszubrechen und damit genau der richtige Mann für den Auftrag, einen neuen High-Tech-Hochsicherheitstrakt einem Praxistest zu unterziehen: Ray lässt sich inkognito als Insasse im Knast einschleusen. Doch schnell bemerkt er, dass ihm eine Falle gestellt wurde: Es scheint so, als ob ihn die Auftraggeber für immer im Gefängnis schmoren lassen wollen. Zudem machen ihm sadistische Wächter das Leben zur Hölle und insbesondere der Leiter der Anstalt Willard Hobbes (Jim Caviezel) hat es auf ihn abgesehen. Ray versucht zu entkommen, aber ein Ausbruch scheint tatsächlich unmöglich, denn für den Bau des Superknastes wurden alle Ratschläge befolgt, die er im Laufe seiner Arbeit für den perfekten Knast gegeben hat. Erst als er den Mithäftling Emil Rottmayer (Arnold Schwarzenegger) kennenlernt, eröffnet sich eine Möglichkeit. Gemeinsam schmieden sie einen Plan, um aus dem „Grab“, wie der Codename der Einrichtung lautet, zu fliehen.



Complete name                            : gtf-escapeplan1.mkv
Format                                   : Matroska
Format version                           : Version 4 / Version 2
File size                                : 1.17 GiB
Duration                                 : 1h 55mn
Overall bit rate                         : 1 451 Kbps
Movie name                               : gtf-escapeplan1.mkv
Encoded date                             : UTC 2019-01-11 15:18:30
Writing application                      : mkvmerge v30.1.0 ('Forever And More') 64-bit
Writing library                          : libebml v1.3.6 + libmatroska v1.4.9
DURATION                                 : 01:55:50.400000000
NUMBER_OF_FRAMES                         : 217200
NUMBER_OF_BYTES                          : 333619200
_STATISTICS_WRITING_APP                  : mkvmerge v30.1.0 ('Forever And More') 64-bit
_STATISTICS_WRITING_DATE_UTC             : 2019-01-11 15:18:30
_STATISTICS_TAGS                         : BPS DURATION NUMBER_OF_FRAMES NUMBER_OF_BYTES

Video
ID                                       : 1
Format                                   : HEVC
Format/Info                              : High Efficiency Video Coding
Format profile                           : Main@L4.0
Codec ID                                 : V_MPEGH/ISO/HEVC
Duration                                 : 1h 55mn
Bit rate                                 : 1 038 Kbps
Width                                    : 1 920 pixels
Height                                   : 800 pixels
Display aspect ratio                     : 2.40:1
Frame rate mode                          : Constant
Frame rate                               : 23.976 fps
Color space                              : YUV
Chroma subsampling                       : 4:2:0
Bit depth                                : 8 bits
Bits/(Pixel*Frame)                       : 0.028
Stream size                              : 860 MiB (72%)
Writing library                          : x265 1.9:[Windows][GCC 4.9.0][64 bit] 8bit
Encoding settings                        : wpp / ctu=64 / min-cu-size=8 / max-tu-size=32 / tu-intra-depth=1 / tu-inter-depth=1 / me=1 / subme=2 / merange=57 / no-rect / no-amp / max-merge=2 / temporal-mvp / no-early-skip / rdpenalty=0 / no-tskip / no-tskip-fast / strong-intra-smoothing / no-lossless / no-cu-lossless / no-constrained-intra / no-fast-intra / open-gop / no-temporal-layers / interlace=0 / keyint=240 / min-keyint=24 / scenecut=40 / rc-lookahead=20 / lookahead-slices=5 / bframes=4 / bframe-bias=0 / b-adapt=2 / ref=3 / limit-refs=3 / no-limit-modes / weightp / no-weightb / aq-mode=1 / qg-size=32 / aq-strength=1.00 / cbqpoffs=0 / crqpoffs=0 / rd=3 / psy-rd=2.00 / rdoq-level=0 / psy-rdoq=0.00 / signhide / deblock / sao / no-sao-non-deblock / b-pyramid / cutree / no-intra-refresh / rc=crf / crf=23.0 / qcomp=0.60 / qpmin=0 / qpmax=51 / qpstep=4 / ipratio=1.40 / pbratio=1.30
Default                                  : Yes
Forced                                   : No
DURATION                                 : 01:55:50.402000000
NUMBER_OF_FRAMES                         : 166643
NUMBER_OF_BYTES                          : 925717352
_STATISTICS_WRITING_APP                  : mkvmerge v30.1.0 ('Forever And More') 64-bit
_STATISTICS_WRITING_DATE_UTC             : 2019-01-11 15:18:30
_STATISTICS_TAGS                         : BPS DURATION NUMBER_OF_FRAMES NUMBER_OF_BYTES

Audio
ID                                       : 2
Format                                   : AC-3
Format/Info                              : Audio Coding 3
Mode extension                           : CM (complete main)
Format settings, Endianness              : Big
Codec ID                                 : A_AC3
Duration                                 : 1h 55mn
Bit rate mode                            : Constant
Bit rate                                 : 384 Kbps
Channel(s)                               : 6 channels
Channel positions                        : Front: L C R, Side: L R, LFE
Sampling rate                            : 48.0 KHz
Bit depth                                : 16 bits
Compression mode                         : Lossy
Delay relative to video                  : -83ms
Stream size                              : 318 MiB (26%)
Language                                 : German
Default                                  : Yes
Forced                                   : Yes


Download:
Share Online Share OnlineShare OnlineShare Online
 

Kommentare