DNS SERVER AENDERNum der staatlichen Zensur zu umgehen. Sollten wir von eurem Provider geseprrt werden, nutzt den TOR BROWSER oder ändert euren DNS SERVER.

Filmwünsche können bei uns im Forum abgegeben werden

Wir Speichern Nicht




 
 
 
Top Releases
American.Animals.2018.German...
Aufbruch.zum.Mond.2018.Germa...
Aufbruch.zum.Mond.2018.Germa...
Aufbruch.zum.Mond.2018.Germa...
Die.Unglaublichen.2.2018.Ger...
Die.Unglaublichen.2.2018.Ger...
Take.The.Ball.Pass.The.Ball....
Take.The.Ball.Pass.The.Ball....
Upgrade.German.DL.AC3.Dubbed...
Upgrade.German.DL.AC3.Dubbed...

Cinedubs
Dont.Worry.weglaufen.geht.ni...
Dont.Worry.weglaufen.geht.ni...
Gaensehaut.2.Gruseliges.Hall...
Aquaman.TS.LD.German.DL.720p...
Eho.Echo.German.720p.WEBRip....
Eho.Echo.German.1080p.WEBRip...
Bad.Times.at.the.El.Royale.2...
Bad.Spies.2018.German.DL.AC3...
Aquaman.2018.GERMAN.AC3.MD.7...
Bad.Spies.German.DL.AC3.Dubb...

Neuerscheinungen 2018-19
Der.Honorarkonsul.Beyond.the...
Take.The.Ball.Pass.The.Ball....
Predator.Upgrade.2018.MULTi....
Solo.2018.German.1080p.WEB.x...
Solo.2018.German.720p.WEB.x2...
The.Last.Laugh.2019.German.D...
Night.School.EXTENDED.German...
Night.School.EXTENDED.German...
Terrifier.UNCUT.GERMAN.2016....
Dieter.der.Film.2006.German....

XXX
MyLifeInMiami.18.12.05.Vina....
Lustery.E157.Maya.And.Edward...
NinaKayy.17.05.12.Foot.Teasi...
NataliaStarr.18.03.09.Sexy.W...
NataliaStarr.18.03.09.Heatin...
NataliaStarr.18.03.09.Cummin...
NHLPCentral.18.12.26.April.P...
NinaKayy.17.05.06.Foot.Domin...
MomXXX.18.12.27.Kiki.Minaj.X...
MyLifeInMiami.18.12.21.Kitty...
MommyBlowsBest.18.12.26.Lexi...
NinaKayy.17.05.09.Sexting.Yo...
MyLifeInMiami.18.11.30.Brook...
NataliaStarr.18.03.09.Riding...
MyLifeInMiami.18.12.21.Megan...
MassageRooms.18.12.26.Angel....
MomsBangTeens.18.12.25.Cory....
NHLPCentral.18.12.20.Tindra....
NinaKayy.17.05.14.Betty.Bang...
NinaKayy.17.05.01.Netflix.Ch...

3D
Walhalla.Rising.3D.2009.DUAL...
Sleepwalker.3D.2011.DUAL.COM...
Bis.an.die.Grenzen.des.Unive...
Best.of.3D.vol.13.-.15.GERMA...
Limbradur.und.die.Magie.der....
Kaluoka.Hina.Das.Zauberriff....
Limbradur.und.die.Magie.der....
Smallfoot.3D.2018.COMPLETE.B...
Smallfoot.Ein.eisigartiges.A...
Skyscraper.3D.2018.German.DL...
Meg.3D.2018.MULTi.COMPLETE.B...
Meg.3D.2018.German.DL.1080p....
Gans.im.Glueck.3D.2018.MULTi...
The.Art.of.Flight.3D.2011.Ge...
The.End.Of.The.World.3D.2010...

Old_Stuff
Animatrix.2003.German.DL.108...
Animatrix.2003.German.DL.720...
Akte.X.S06.German.DTS.DL.108...
The.Beauty.of.Gemina.Minor.S...
ZZ.Top.Live.from.Texas.2008....
Peter.Hase.2018.German.DL.10...
Akte.X.S05.German.DTS.DL.108...
Akte.X.S04.German.DTS.DL.108...
Akte.X.S03.German.DTS.DL.108...
Dunkirk.1958.COMPLETE.BLURAY...
Das.Wunder.von.Manhattan.199...
The.Amazing.Spiderman.2.Rise...
Rise.of.the.Predator.2014.Ge...
Detective.Dee.und.das.Geheim...
Detective.Dee.Und.Der.Fluch....

Filme
Der.Hauptmann.2017.German.DT...
Rise.of.the.Scythian.2018.Ge...
Mara.2018.German.DL.1080p.Bl...
Ghost.Bride.2013.German.DL.1...
Predator.Upgrade.2018.German...
Biohazard.Monster.aus.der.Ga...
Tesla.unter.Strom.GERMAN.DOK...
Havanna.1990.German.DL.1080p...
Havanna.1990.German.DL.720p....
Das.blaue.Licht.2010.GERMAN....
Elephant.White.2011.DUAL.COM...
Gunpowder.S01.COMPLETE.Germa...
Outlander.S04.German.DD51.DL...
Outlander.S04.German.DD51.DL...
Once.Upon.a.Time.S07.German....
Once.Upon.a.Time.S07.German....
Terrifier.UNCUT.GERMAN.2016....
Gigant.am.Gletscher.Vom.Bau....
Giganten.Die.10.groessten.Un...
Giganten.Die.10.groessten.Un...
Der.Neandertaler.in.uns.E01....
Der.Neandertaler.in.uns.E01....
Werner.Beinhart.1990.German....
Werner.Beinhart.1990.German....

 
 
Aufbruch.zum.Mond.2018.German.AC3D.5.1.DL.1080p.BluRay.x264-BluRHD

Jahr: 2018
Genre: Biografie, Drama
Sprache: Deutsch AC3 | Englisch AC3
Laufzeit: 2h 21mn
Bitrate: 10.6 Mbps
Format: MKV
Größe: 10.5 GiB
Release:

Beschreibung:

Der Ingenieur Neil Armstrong (Ryan Gosling) arbeitet Anfang der 60er Jahre als Testpilot für Jets und Raketenflugzeuge und hat mit seiner Frau Janet (Claire Foy) und den beiden Kindern Rick (Gavin Warren) und Karen (Lucy Stafford) eine liebende Familie hinter sich, die ihm den Rücke stärkt. Sein ganzes Leben ändert sich jedoch, als seine Tochter an einem Gehirntumor stirbt und die Familie nach einer Veränderung sucht. Diese bietet sich, als die NASA für ein Mondprogramm auf der Suche nach Piloten mit Ingenieurswissen sind. Neil nutzt die Chance und zieht mit seiner Familie nach Houston, wo er eine Ausbildung zum Astronauten beginnt. Nach etlichen Strapazen und Testflügen, kämpft sich der professionelle Ingenieur bis an die Spitze und wird bald gemeinsam mit Buzz Aldrin (Corey Stoll) und Mike Collins (Lukas Haas) mit der Apollo-11-Mission zum Mond geschickt.



Complete name                            : bhd-azm-1080p.mkv
Format                                   : Matroska
Format version                           : Version 2
File size                                : 10.5 GiB
Duration                                 : 2h 21mn
Overall bit rate                         : 10.6 Mbps
Encoded date                             : UTC 2019-01-12 06:25:36
Writing application                      : mkvmerge v4.5.0 ('Speed of Light') gebaut am Feb  1 2011 02:10:32
Writing library                          : libebml v1.2.0 + libmatroska v1.1.0

Video
ID                                       : 1
Format                                   : AVC
Format/Info                              : Advanced Video Codec
Format profile                           : High@L4.1
Format settings, CABAC                   : Yes
Format settings, ReFrames                : 5 frames
Codec ID                                 : V_MPEG4/ISO/AVC
Duration                                 : 2h 21mn
Bit rate                                 : 9 338 Kbps
Width                                    : 1 920 pixels
Height                                   : 808 pixels
Display aspect ratio                     : 2.40:1
Frame rate mode                          : Constant
Frame rate                               : 23.976 fps
Color space                              : YUV
Chroma subsampling                       : 4:2:0
Bit depth                                : 8 bits
Scan type                                : Progressive
Bits/(Pixel*Frame)                       : 0.251
Stream size                              : 8.98 GiB (86%)
Writing library                          : x264 core 155 r2901 7d0ff22
Encoding settings                        : cabac=1 / ref=5 / deblock=1:0:0 / analyse=0x3:0x113 / me=umh / subme=8 / psy=1 / psy_rd=1.00:0.00 / mixed_ref=1 / me_range=16 / chroma_me=1 / trellis=1 / 8x8dct=1 / cqm=0 / deadzone=21,11 / fast_pskip=1 / chroma_qp_offset=-2 / threads=24 / lookahead_threads=4 / sliced_threads=0 / nr=0 / decimate=1 / interlaced=0 / bluray_compat=0 / constrained_intra=0 / bframes=3 / b_pyramid=2 / b_adapt=1 / b_bias=0 / direct=3 / weightb=1 / open_gop=0 / weightp=2 / keyint=240 / keyint_min=24 / scenecut=40 / intra_refresh=0 / rc_lookahead=50 / rc=2pass / mbtree=1 / bitrate=9338 / ratetol=1.0 / qcomp=0.60 / qpmin=0 / qpmax=69 / qpstep=4 / cplxblur=20.0 / qblur=0.5 / ip_ratio=1.40 / aq=1:1.00
Language                                 : English
Default                                  : Yes
Forced                                   : No

Audio #1
ID                                       : 2
Format                                   : AC-3
Format/Info                              : Audio Coding 3
Mode extension                           : CM (complete main)
Format settings, Endianness              : Big
Codec ID                                 : A_AC3
Duration                                 : 2h 21mn
Bit rate mode                            : Constant
Bit rate                                 : 640 Kbps
Channel(s)                               : 6 channels
Channel positions                        : Front: L C R, Side: L R, LFE
Sampling rate                            : 48.0 KHz
Bit depth                                : 16 bits
Compression mode                         : Lossy
Delay relative to video                  : 2s 0ms
Stream size                              : 648 MiB (6%)
Title                                    : German
Language                                 : German
Default                                  : Yes
Forced                                   : No

Audio #2
ID                                       : 3
Format                                   : AC-3
Format/Info                              : Audio Coding 3
Mode extension                           : CM (complete main)
Format settings, Endianness              : Big
Codec ID                                 : A_AC3
Duration                                 : 2h 21mn
Bit rate mode                            : Constant
Bit rate                                 : 640 Kbps
Channel(s)                               : 6 channels
Channel positions                        : Front: L C R, Side: L R, LFE
Sampling rate                            : 48.0 KHz
Bit depth                                : 16 bits
Compression mode                         : Lossy
Stream size                              : 648 MiB (6%)
Title                                    : English
Language                                 : English
Default                                  : No
Forced                                   : No


Download:
Share Online Share OnlineShare OnlineShare Online
 

Kommentare