HD-AREA wünscht Euch eine besinnliche Weihnachtszeit ;)

DNS SERVER AENDERNum der staatlichen Zensur zu umgehen. Sollten wir von eurem Provider geseprrt werden, nutzt den TOR BROWSER oder ändert euren DNS SERVER.

Filmwünsche können bei uns im Forum abgegeben werden

Wir Speichern Nicht




 
 
 
Top Releases
Earthquake.Die.Welt.Am.Abgru...
Earthquake.Die.Welt.Am.Abgru...
Earthquake.Die.Welt.Am.Abgru...
Earthquake.Die.Welt.Am.Abgru...
Paradox.Kill.Zone.Bangkok.20...
I.Tonya.2017.German.AC3.1080...
Deine.Juliet.2018.German.DL....
Ideal.Home.2018.German.DL.10...
Ideal.Home.Ein.Vater.kommt.s...
Deine.Juliet.2018.German.DTS...

Cinedubs
Venom.German.DL.AC3.Dubbed.1...
Venom.2018.German.AC3D.5.1.D...
Venom.2018.German.AC3D.5.1.D...
Das.krumme.Haus.2017.GERMAN....
Das.krumme.Haus.2017.GERMAN....
I.Still.See.You.Sie.lassen.d...
I.Still.See.You.Sie.lassen.d...
Braven.2018.German.AC3D.DL.1...
Braven.2018.German.AC3D.DL.7...
Smallfoot.Ein.eisigartiges.A...

Neuerscheinungen 2017-18
Meine.teuflisch.gute.Freundi...
Gans.im.Glueck.2018.DUAL.COM...
Gans.im.Glueck.German.DL.108...
Gans.im.Glueck.German.DL.720...
Fellini.Satyricon.1969.MULTi...
Fellinis.Roma.1972.MULTi.COM...
Fellinis.Casanova.1976.MULTi...
The.Scorpion.King.4.Der.verl...
Gotti.A.Real.American.Godfat...
Gotti.A.Real.American.Godfat...

XXX
Bang.Europe.13.XXX.720p.WEBR...
Bang.Europe.13.XXX.1080p.WEB...
Anilos.18.12.01.Emily.Winter...
AussieFellatioQueens.18.11.2...
1000Facials.18.12.03.Lexi.Fo...
AussieFellatioQueens.18.12.0...
BlowBangGirls.18.11.30.Adora...
AllOver30.18.12.03.Lauren.Ph...
BigWetButts.18.12.03.Blanche...
BoxTruckSex.18.12.02.Victori...
AuntJudys.18.12.03.Spying.On...
CherryPimps.18.12.01.Ana.Fox...
BlackIsBetter.18.12.02.Alexa...
BigGulpGirls.18.11.30.Lauren...
AdultAuditions.E265.Sabrina....
BabyGotBoobs.18.12.01.Tiffan...
AuntJudys.18.11.30.Auntie.Ja...
ATKHairy.18.11.30.Bella.Dahl...
Blacked.18.12.01.Riley.Reid....
BackroomCastingCouch.18.12.0...

3D
The.Art.of.Flight.3D.2011.Ge...
The.End.Of.The.World.3D.2010...
The.First.Avenger.Civil.War....
Die.Unglaublichen.2.2018.3D....
Skyscraper.3D.2018.MULTi.COM...
Ant-Man.And.The.Wasp.3D.2018...
Ant.Man.and.the.Wasp.3D.2018...
Die.Unglaublichen.2.3D.2018....
Die.Unglaublichen.2.2018.3D....
Die.Unglaublichen.2.2018.3D....
Sharknado.6.The.Last.One.3D....
Deep.Kleine.Helden.der.Tiefs...
Deep.3D.2017.MULTI.COMPLETE....
Detective.Dee.und.die.Legend...
Detective.Dee.und.die.Legend...

Old_Stuff
Akte.X.S04.German.DTS.DL.108...
Akte.X.S03.German.DTS.DL.108...
Dunkirk.1958.COMPLETE.BLURAY...
Das.Wunder.von.Manhattan.199...
The.Amazing.Spiderman.2.Rise...
Rise.of.the.Predator.2014.Ge...
Detective.Dee.und.das.Geheim...
Detective.Dee.Und.Der.Fluch....
Ghost.Rider.Spirit.of.Vengea...
Species.IV.Das.Erwachen.2007...
Species.IV.Das.Erwachen.2007...
Hotel.Transsilvanien.2012.Ge...
The.Dead.2010.German.DL.1080...
The.Dead.2.India.2013.German...
Britney.Spears.Live.The.Femm...

Filme
Shoot.Em.Up.Open.Matte.2006....
Predator.2.1990.German.AC3.D...
Errors.of.the.Human.Body.201...
Welcome.2009.German.AC3D.DL....
Girls.Club.Vorsicht.bissig.2...
The.Way.Of.The.Gun.2000.Germ...
Bog.Das.Ungeheuer.aus.den.Su...
Der.unwiderstehliche.Charme....
Sssssnake.Kobra.1973.German....
Der.Zauber.von.Malena.2000.U...
I.Tonya.2017.German.1080p.DL...
Red.Sniper.-.Die.Todesschuet...
Swedish.Dicks.S02.German.DD2...
Terminator.Salvation.Theatri...
Supergirl.S03D01-4.MULTi.COM...
Scandal.S06.COMPLETE.German....
Scandal.S06.COMPLETE.German....
Arrow.S06.German.DL.1080p.Bl...
Arrow.S06.German.DL.720p.Blu...
The.Good.Doctor.S02.German.D...
The.Good.Doctor.S02.German.D...
Bad.Santa.EXTENDED.2003.Germ...
Aladdin.1992.German.AC3.DL.1...
DCs.Legends.of.Tomorrow.S03D...

 
 
Meine.teuflisch.gute.Freundin.German.1080p.BluRay.x264-EmpireHD

Jahr: 2018
Genre: Komödie
Sprache: Deutsch DTS
Laufzeit: 1h 39mn
Bitrate: 7 748 Kbps
Format: MKV
Größe: 5.41 GiB
Release:

Beschreibung:

Lilith (Emma Bading) ist ein ganz normales Teenager-Mädchen, mal davon abgesehen, dass sie die Tochter des Teufels (Samuel Finzi) ist und in der Hölle wohnt. Und das ist wirklich die Hölle, denn ihr strenger Vater lässt ihr keinerlei Spielraum und denkt, dass seine Tochter zu jung für die Arbeit des Teufels ist. Richtig böse sein? Darf sie nur in der Theorie unter Aufsicht ihres Hauslehrers … und im Internet. Aber das reicht Lilith schon lange nicht mehr. Sie will raus in die richtige Welt und zeigen, was sie kann. Also schlägt sie ihrem Vater einen teuflischen Deal vor: Schafft sie es innerhalb einer Woche einen guten Menschen zum Bösen zu verführen, darf sie dortbleiben und weiter ihr Unwesen treiben. Scheitert sie, geht es umgehend zurück in die höllische Langeweile – für immer! Vater und Tochter schlagen ein, der Deal steht.



Complete name                            : empire-mfgf-1080p.mkv
Format                                   : Matroska
Format version                           : Version 2
File size                                : 5.41 GiB
Duration                                 : 1h 39mn
Overall bit rate                         : 7 748 Kbps
Writing application                      : mkvmerge v4.1.1 ('Bouncin' Back') built on Jul  3 2010 22:54:08
Writing library                          : libebml v1.0.0 + libmatroska v1.0

Video
ID                                       : 1
Format                                   : AVC
Format/Info                              : Advanced Video Codec
Format profile                           : High@L4.1
Format settings, CABAC                   : Yes
Format settings, ReFrames                : 5 frames
Codec ID                                 : V_MPEG4/ISO/AVC
Duration                                 : 1h 39mn
Bit rate                                 : 6 085 Kbps
Width                                    : 1 920 pixels
Height                                   : 808 pixels
Display aspect ratio                     : 2.40:1
Frame rate mode                          : Constant
Frame rate                               : 24.000 fps
Color space                              : YUV
Chroma subsampling                       : 4:2:0
Bit depth                                : 8 bits
Scan type                                : Progressive
Bits/(Pixel*Frame)                       : 0.163
Stream size                              : 4.25 GiB (79%)
Writing library                          : x264 core 157 r2935 545de2f
Encoding settings                        : cabac=1 / ref=5 / deblock=1:-3:-3 / analyse=0x3:0x133 / me=umh / subme=8 / psy=1 / psy_rd=1.00:0.15 / mixed_ref=1 / me_range=16 / chroma_me=1 / trellis=1 / 8x8dct=1 / cqm=0 / deadzone=21,11 / fast_pskip=0 / chroma_qp_offset=-3 / threads=16 / lookahead_threads=2 / sliced_threads=0 / nr=0 / decimate=1 / interlaced=0 / bluray_compat=0 / constrained_intra=0 / bframes=3 / b_pyramid=2 / b_adapt=1 / b_bias=0 / direct=3 / weightb=1 / open_gop=0 / weightp=2 / keyint=240 / keyint_min=24 / scenecut=40 / intra_refresh=0 / rc_lookahead=40 / rc=crf / mbtree=1 / crf=20.0 / qcomp=0.60 / qpmin=10 / qpmax=69 / qpstep=4 / ip_ratio=1.40 / aq=1:1.00
Language                                 : English
Default                                  : Yes
Forced                                   : No

Audio
ID                                       : 2
Format                                   : DTS
Format/Info                              : Digital Theater Systems
Mode                                     : 16
Format settings, Endianness              : Big
Codec ID                                 : A_DTS
Duration                                 : 1h 39mn
Bit rate mode                            : Constant
Bit rate                                 : 1 509 Kbps
Channel(s)                               : 6 channels
Channel positions                        : Front: L C R, Side: L R, LFE
Sampling rate                            : 48.0 KHz
Bit depth                                : 24 bits
Compression mode                         : Lossy
Stream size                              : 1.05 GiB (19%)
Language                                 : German
Default                                  : Yes
Forced                                   : No


Download:
Share Online Share OnlineShare OnlineShare Online
 

Kommentare