Filecrypt zeigt vereinzelt Files als "n/a". Die Downloads sind trotzdem komplett.

DNS SERVER AENDERNum der staatlichen Zensur zu umgehen. Sollten wir von eurem Provider geseprrt werden, nutzt den TOR BROWSER oder ändert euren DNS SERVER.

Filmwünsche können bei uns im Forum abgegeben werden

Wir Speichern Nicht




 
 
 
Top Releases
I.Tonya.2017.German.AC3.1080...
Deine.Juliet.2018.German.DL....
Ideal.Home.2018.German.DL.10...
Ideal.Home.Ein.Vater.kommt.s...
Deine.Juliet.2018.German.DTS...
Deine.Juliet.2018.MULTi.COMP...
Ideal.Home.Ein.Vater.kommt.s...
Ideal.Home.Ein.Vater.kommt.s...
Cam.2018.German.AC3.DL.1080p...
Die.Frau.die.vorausgeht.Germ...

Cinedubs
Venom.2018.German.AC3D.5.1.D...
Venom.2018.German.AC3D.5.1.D...
Das.krumme.Haus.2017.GERMAN....
Das.krumme.Haus.2017.GERMAN....
I.Still.See.You.Sie.lassen.d...
I.Still.See.You.Sie.lassen.d...
Braven.2018.German.AC3D.DL.1...
Braven.2018.German.AC3D.DL.7...
Smallfoot.Ein.eisigartiges.A...
Smallfoot.Ein.eisigartiges.A...

Neuerscheinungen 2017-18
Gotti.A.Real.American.Godfat...
American.Romance.2016.German...
Comanche.Moon.S01.2008.MULTi...
Boar.2017.German.DL.1080p.Bl...
Robin.Hood.Ein.Leben.fuer.Ri...
Robert.3.The.Toymaker.2017.C...
Robert.3.The.Toymaker.2017.G...
Robert.3.The.Toymaker.2017.G...
Scorpion.King.5.Das.Buch.der...
The.Scorpion.King.5.Das.Buch...

XXX
SugarCookie.18.08.10.Marica....
WankItNow.17.12.01.Scarlett....
ProducersFun.17.11.26.Sierra...
WeFuckBlackGirls.18.11.26.Ki...
WankItNow.17.12.01.Eva.Watch...
Vixen.18.11.25.Danni.Rivers....
SexArt.18.11.25.Stefany.Moon...
Stunning18.18.11.26.Cira.Ner...
SugarCookie.18.08.20.Kira.Qu...
SpyFam.18.11.26.Alex.Blake.X...
ShesNew.18.11.25.River.Fox.A...
ProducersFun.17.11.17.Zaya.C...
WankItNow.17.12.02.Sophia.Sm...
ScamAngels.18.11.25.Bailey.B...
Twistys.18.11.26.Eliza.Ibarr...
Spizoo.18.11.26.Daisy.Stone....
RKPrime.18.11.26.Karmen.Karm...
SweetheartVideo.18.11.26.Sov...
Submissived.18.11.26.Jezebet...
TheLifeErotic.18.11.25.Liz.R...

3D
The.Art.of.Flight.3D.2011.Ge...
The.End.Of.The.World.3D.2010...
The.First.Avenger.Civil.War....
Die.Unglaublichen.2.2018.3D....
Skyscraper.3D.2018.MULTi.COM...
Ant-Man.And.The.Wasp.3D.2018...
Ant.Man.and.the.Wasp.3D.2018...
Die.Unglaublichen.2.3D.2018....
Die.Unglaublichen.2.2018.3D....
Die.Unglaublichen.2.2018.3D....
Sharknado.6.The.Last.One.3D....
Deep.Kleine.Helden.der.Tiefs...
Deep.3D.2017.MULTI.COMPLETE....
Detective.Dee.und.die.Legend...
Detective.Dee.und.die.Legend...

Old_Stuff
Akte.X.S04.German.DTS.DL.108...
Akte.X.S03.German.DTS.DL.108...
Dunkirk.1958.COMPLETE.BLURAY...
Das.Wunder.von.Manhattan.199...
The.Amazing.Spiderman.2.Rise...
Rise.of.the.Predator.2014.Ge...
Detective.Dee.und.das.Geheim...
Detective.Dee.Und.Der.Fluch....
Ghost.Rider.Spirit.of.Vengea...
Species.IV.Das.Erwachen.2007...
Species.IV.Das.Erwachen.2007...
Hotel.Transsilvanien.2012.Ge...
The.Dead.2010.German.DL.1080...
The.Dead.2.India.2013.German...
Britney.Spears.Live.The.Femm...

Filme
Boar.2017.German.DL.1080p.Bl...
Zwei.vom.alten.Schlag.2013.G...
Ouija.Seance.The.Final.Game....
Arrow.S06D01-4.MULTi.COMPLET...
Barry.Seal.Only.in.America.2...
Barry.Seal.Only.in.America.2...
4.Blocks.S02D01+2.GERMAN.COM...
The.Raid.2011.German.1080p.B...
Christiane.F.Wir.Kinder.vom....
Frankensteins.Sohn.1939.Germ...
June.2015.German.DL.1080p.Bl...
So.High.2001.German.AC3D.DL....
Penelope.2006.German.DL.AC3....
Freejack.Geisel.der.Zukunft....
Terminal.Rache.war.nie.schoe...
Kingpin.1996.EXTENDED.German...
Bob.der.Butler.2005.German.A...
Ein.Herz.und.eine.Kanone.-.G...
Octagon.Die.Rache.der.Ninja....
Im.Jahr.des.Drachen.1985.Ger...
I.Am.Your.Father.2015.AC3.DO...
Ich.glaub.mich.knutscht.ein....
Not.Fade.Away.2012.German.AC...
The.Marine.6.Close.Quarters....

 
 
Venom.2018.German.AC3D.5.1.DL.1080p.BluRay.x264-LameHD

Jahr: 2018
Genre: Action, Sci-Fi
Sprache: Deutsch AC3 | Englisch AC3
Laufzeit: 1h 52mn
Bitrate: 5 984 Kbps
Format: MKV
Größe: 4.69 GiB
Release:

Beschreibung:

Als Dr. Carlton Drake (Riz Ahmed), Chef der mysteriösen Life Foundation, in den Besitz eines Organismus außerirdischen Ursprungs kommt, benutzt er diese sogenannten Symbionten, um mit ihnen Experimente an Menschen durchzuführen. Dank des Tipps einer Konzern-Insiderin (Jenny Slate) bekommt der Reporter Eddie Brock (Tom Hardy) Wind von Drakes fragwürdigen Machenschaften und beschließt – entgegen der Warnung seiner Freundin Anne (Michelle Williams) – der Sache auf den Grund zu gehen. Bei seinen Nachforschungen in den Labors der Life Foundation kommt Eddie jedoch selbst mit einem Symbionten in Kontakt, der mit ihm zu einem neuen Wesen verschmilzt: dem mit übermenschlichen Kräften ausgestatteten Venom.

 

Die neue AC3 5.1 Tonspur wurde von uns (LameMIX) aus Englisch AC3 5.1 und Deutsch AC3 2.0 erstellt (Source war die Deutsche Line (THX @ PsO) und der Englische WebRip . Dialoge stammen aus der Deutschen AC3 und der Rest vom Englischen AC3-Ton. Des Weiteren wurden Lautst rke und EQ Anpassungen in den einzelnen Kan len vorgenommen und Raum-Hall in bestimmten Szenen.



Complete name                            : lame-venom-1080.mkv
Format                                   : Matroska
Format version                           : Version 4 / Version 2
File size                                : 4.69 GiB
Duration                                 : 1h 52mn
Overall bit rate                         : 5 984 Kbps
Encoded date                             : UTC 2018-12-05 14:52:58
Writing application                      : mkvmerge v28.2.0 ('The Awakening') 64-bit
Writing library                          : libebml v1.3.6 + libmatroska v1.4.9
DURATION                                 : 01:34:45.959000000
NUMBER_OF_FRAMES                         : 2765
NUMBER_OF_BYTES                          : 32568731
_STATISTICS_WRITING_APP                  : mkvmerge v28.2.0 ('The Awakening') 64-bit
_STATISTICS_WRITING_DATE_UTC             : 2018-12-05 14:52:58
_STATISTICS_TAGS                         : BPS DURATION NUMBER_OF_FRAMES NUMBER_OF_BYTES

Video
ID                                       : 1
Format                                   : AVC
Format/Info                              : Advanced Video Codec
Format profile                           : High@L4.0
Format settings, CABAC                   : Yes
Format settings, ReFrames                : 4 frames
Codec ID                                 : V_MPEG4/ISO/AVC
Duration                                 : 1h 52mn
Bit rate                                 : 4 899 Kbps
Width                                    : 1 920 pixels
Height                                   : 800 pixels
Display aspect ratio                     : 2.40:1
Frame rate mode                          : Constant
Frame rate                               : 23.976 fps
Color space                              : YUV
Chroma subsampling                       : 4:2:0
Bit depth                                : 8 bits
Scan type                                : Progressive
Bits/(Pixel*Frame)                       : 0.133
Stream size                              : 3.74 GiB (80%)
Writing library                          : x264 core 152 r2851 ba24899
Encoding settings                        : cabac=1 / ref=1 / deblock=1:0:0 / analyse=0x3:0x113 / me=hex / subme=2 / psy=1 / psy_rd=1.00:0.00 / mixed_ref=0 / me_range=16 / chroma_me=1 / trellis=0 / 8x8dct=1 / cqm=0 / deadzone=21,11 / fast_pskip=1 / chroma_qp_offset=0 / threads=90 / lookahead_threads=6 / sliced_threads=0 / nr=0 / decimate=1 / interlaced=0 / bluray_compat=0 / constrained_intra=0 / bframes=3 / b_pyramid=2 / b_adapt=1 / b_bias=0 / direct=1 / weightb=1 / open_gop=0 / weightp=1 / keyint=250 / keyint_min=23 / scenecut=40 / intra_refresh=0 / rc_lookahead=10 / rc=abr / mbtree=1 / bitrate=4899 / ratetol=1.0 / qcomp=0.60 / qpmin=0 / qpmax=69 / qpstep=4 / ip_ratio=1.40 / aq=1:1.00
Default                                  : Yes
Forced                                   : No

Audio #1
ID                                       : 2
Format                                   : AC-3
Format/Info                              : Audio Coding 3
Mode extension                           : CM (complete main)
Format settings, Endianness              : Big
Codec ID                                 : A_AC3
Duration                                 : 1h 52mn
Bit rate mode                            : Constant
Bit rate                                 : 640 Kbps
Channel(s)                               : 6 channels
Channel positions                        : Front: L C R, Side: L R, LFE
Sampling rate                            : 48.0 KHz
Bit depth                                : 16 bits
Compression mode                         : Lossy
Stream size                              : 513 MiB (11%)
Language                                 : German
Default                                  : Yes
Forced                                   : No

Audio #2
ID                                       : 3
Format                                   : AC-3
Format/Info                              : Audio Coding 3
Mode extension                           : CM (complete main)
Format settings, Endianness              : Big
Codec ID                                 : A_AC3
Duration                                 : 1h 52mn
Bit rate mode                            : Constant
Bit rate                                 : 448 Kbps
Channel(s)                               : 6 channels
Channel positions                        : Front: L C R, Side: L R, LFE
Sampling rate                            : 48.0 KHz
Bit depth                                : 16 bits
Compression mode                         : Lossy
Stream size                              : 359 MiB (7%)
Language                                 : English
Default                                  : No
Forced                                   : No

Text
ID                                       : 4
Format                                   : PGS
Muxing mode                              : zlib
Codec ID                                 : S_HDMV/PGS
Codec ID/Info                            : The same subtitle format used on BDs/HD-DVDs
Language                                 : English
Default                                  : No
Forced                                   : No


Download:
Share Online Share OnlineShare OnlineShare Online
 

Kommentare