Filecrypt zeigt vereinzelt Files als "n/a". Die Downloads sind trotzdem komplett.

DNS SERVER AENDERNum der staatlichen Zensur zu umgehen. Sollten wir von eurem Provider geseprrt werden, nutzt den TOR BROWSER oder ändert euren DNS SERVER.

Filmwünsche können bei uns im Forum abgegeben werden

Wir Speichern Nicht




 
 
 
Top Releases
Die.Unglaublichen.2.German.D...
Prinz.Charming.2018.German.A...
Die.Unglaublichen.2.German.D...
Die.Unglaublichen.2.German.D...
Unknown.Soldier.Kampf.ums.Va...
Gangstas.4.Life.2018.German....
LenaLove.2016.German.AC3.108...
Jumanji.Willkommen.im.Dschun...
Catch.Me.2018.German.DL.AC3D...
The.Equalizer.2014.German.AC...

Cinedubs
BlacKkKlansman.2018.German.A...
BlacKkKlansman.2018.German.A...
Mandy.2018.German.AC3MD.DL.7...
Mandy.2018.German.AC3MD.DL.1...
The.Guilty.2018.German.AC3MD...
The.Guilty.2018.German.AC3MD...
Der.Affront.2017.GERMAN.AC3....
Der.Affront.2017.GERMAN.AC3....
Meg.German.DL.AC3.Dubbed.108...
Meg.German.DL.AC3.Dubbed.720...

Neuerscheinungen 2017-18
Mein.Name.ist.Somebody.Zwei....
Mein.Name.ist.Somebody.Zwei....
Taxi.5.2018.German.AC3.DL.10...
The.Holiday.Calendar.2018.Ge...
The.Holiday.Calendar.2018.Ge...
Hardcover.1989.German.DL.108...
Matrix.Reloaded.2003.Remaste...
Bo.und.der.Weihnachtsstern.2...
211.Cops.under.Fire.2018.Ger...
Das.Phantom.Kommando.DC.1985...

XXX
NuruMassage.18.10.17.Dana.De...
Nubiles.18.10.13.Anzelika.Se...
OldYoungLesbianLove.18.10.15...
NewSensations.18.10.17.Eliza...
Nubiles.18.10.17.Nikki.Fox.A...
OnlyTeenBlowJobs.18.10.18.Ga...
NothingButCurves.18.10.05.Ch...
NubileFilms.18.10.14.Mary.Ka...
NubileFilms.18.10.17.Hime.Ma...
Nubiles.18.10.16.Faina.Intim...
POVBitch.18.10.17.Mea.Melone...
POVPornstars.18.10.13.Julz.G...
POVPornstars.18.10.18.Harmon...
Penthouse.Letters.Bad.Wives....
POVPornstars.18.10.15.Jeni.J...
Passion-HD.18.10.13.Addee.Ka...
Nubiles.18.10.17.Kecy.Hill.N...
Nubiles.18.10.14.Skylar.Vale...
Club.One.6.XXX.720p.WEBRip.M...
Club.One.6.XXX.1080p.WEBRip....

3D
Sharknado.6.The.Last.One.3D....
Deep.Kleine.Helden.der.Tiefs...
Deep.3D.2017.MULTI.COMPLETE....
Detective.Dee.und.die.Legend...
Detective.Dee.und.die.Legend...
Skyscraper.3D.German.DL.AC3....
Ant-Man.and.the.Wasp.2018.3D...
Jurassic.World.Das.gefallene...
Jurassic.World.Das.gefallene...
Best.of.3D.vol.10.-.12.GERMA...
Die.Biene.Maja.2.Die.Honigsp...
Sharknado.6.The.Last.One.3D....
Solo.A.Star.Wars.Story.3D.20...
Solo.A.Star.Wars.Story.3D.20...
Die.Biene.Maja.2.Die.Honigsp...

Old_Stuff
Species.IV.Das.Erwachen.2007...
Species.IV.Das.Erwachen.2007...
Hotel.Transsilvanien.2012.Ge...
The.Dead.2010.German.DL.1080...
The.Dead.2.India.2013.German...
Britney.Spears.Live.The.Femm...
Buffy.The.Vampire.Slayer.199...
IMAX.Ride.Around.The.World.2...
Schimanski.-.Duisburg.Ruhror...
Akte.X.S02.German.DTS.DL.108...
How.I.Met.Your.Mother.S02.Ge...
Akte.X.S01.German.DTS.DL.108...
Den.Himmel.gibts.echt.DL.108...
Vikings.S02.German.DL.1080p....
Be.Kind.Rewind.Abgedreht.200...

Filme
Descendants.Die.Nachkommen.2...
Die.Simpsons.S29.GERMAN.DUBB...
The.Game.1997.German.DL.1080...
12.Monkeys.Arrow.Remastered....
Holy.Days.-.Ich.heirate.eine...
Der.Gangsterschreck.1955.Ger...
The.Prisoner.1990.German.108...
The.Protocol.Jeder.Tod.hat.s...
The.Punisher.1989.UNRATED.Ge...
Patient.Zero.2018.German.DTS...
Patient.Zero.2018.German.DTS...
Little.Big.Soldier.2010.Germ...
The.Presidents.Man.2000.Germ...
The.Prank.2013.German.DL.108...
The.Power.of.Fear.2006.Germa...
Ultraviolet.2006.German.DL.1...
House.Of.Cards.2013.S06.COMP...
House.of.Cards.2013.S06.COMP...
iZombie.S04.German.DD51.Dubb...
iZombie.S04.German.DD51.Dubb...
Krypton.S01.German.DD51.Dubb...
Mamma.Mia.2008.German.AC3.DL...
Star.Kid.UNCUT.1997.German.A...
Mindscape.2013.German.DL.108...

 
 
Mandy.2018.German.AC3MD.DL.1080p.BluRay.x264-PS

Jahr: 2018
Genre: Action, Horror, Thriller
Sprache: Deutsch AC3 | Englisch DTS
Laufzeit: 2h 1mn
Bitrate: 9 217 Kbps
Format: MKV
Größe: 7.81 GiB
Release:

Beschreibung:

Der Pazifische Nordwesten im Jahr 1983: Red Miller (Nicolas Cage) und seine Frau Mandy (Andrea Riseborough) leben abgeschieden in harmonischer, trauter Zweisamkeit im Wald. Ihr Leben wird aber von einem auf den anderen Tag zerstört, kurz nachdem der Kult-Anführer Jeremiah Sand (Linus Roache) auf Mandy aufmerksam geworden ist. Er beauftragt seine Anhänger Marlene (Olwen Fouéré) und Swan (Ned Dennehy), die ihm vollkommen ergeben sind, die Mandy in seine Sekte zu zwingen. Als sie sich jedoch widersetzt und Jeremiah damit vollkommen lächerlich macht, wird Mandy vor den Augen ihres liebenden Mannes, der sich gefesselt seinem Schicksal fügen muss, ermordet. Tief erschüttert hat Red daraufhin nichts anderes mehr im Sinn, als den Tod seiner Frau zu rächen. Er schmiedet eine Hellebarde, schnappt sich eine Armbrust - und los geht’s…



Complete name                            : ps-mandy.bdmd.108.mkv
Format                                   : Matroska
Format version                           : Version 4 / Version 2
File size                                : 7.81 GiB
Duration                                 : 2h 1mn
Overall bit rate                         : 9 217 Kbps
Encoded date                             : UTC 2018-11-03 01:49:25
Writing application                      : mkvmerge v8.0.0 ('Til The Day That I Die') 64bit
Writing library                          : libebml v1.3.1 + libmatroska v1.4.2
DURATION                                 : 02:01:03.232000000
NUMBER_OF_FRAMES                         : 226976
NUMBER_OF_BYTES                          : 174317568
_STATISTICS_WRITING_APP                  : mkvmerge v8.0.0 ('Til The Day That I Die') 64bit
_STATISTICS_WRITING_DATE_UTC             : 2018-11-03 01:49:25
_STATISTICS_TAGS                         : BPS DURATION NUMBER_OF_FRAMES NUMBER_OF_BYTES

Video
ID                                       : 1
Format                                   : AVC
Format/Info                              : Advanced Video Codec
Format profile                           : High@L4.1
Format settings, CABAC                   : Yes
Format settings, ReFrames                : 5 frames
Codec ID                                 : V_MPEG4/ISO/AVC
Duration                                 : 2h 1mn
Bit rate                                 : 7 332 Kbps
Nominal bit rate                         : 8 259 Kbps
Width                                    : 1 920 pixels
Height                                   : 808 pixels
Display aspect ratio                     : 2.40:1
Frame rate mode                          : Constant
Frame rate                               : 23.976 fps
Color space                              : YUV
Chroma subsampling                       : 4:2:0
Bit depth                                : 8 bits
Scan type                                : Progressive
Bits/(Pixel*Frame)                       : 0.197
Stream size                              : 6.21 GiB (80%)
Writing library                          : x264 core 157 r2935 545de2f
Encoding settings                        : cabac=1 / ref=5 / deblock=1:0:0 / analyse=0x3:0x133 / me=umh / subme=7 / psy=1 / psy_rd=1.00:0.00 / mixed_ref=1 / me_range=16 / chroma_me=1 / trellis=2 / 8x8dct=1 / cqm=0 / deadzone=21,11 / fast_pskip=0 / chroma_qp_offset=-2 / threads=18 / lookahead_threads=3 / sliced_threads=0 / nr=0 / decimate=1 / interlaced=0 / bluray_compat=0 / constrained_intra=0 / bframes=3 / b_pyramid=2 / b_adapt=1 / b_bias=0 / direct=3 / weightb=1 / open_gop=0 / weightp=2 / keyint=250 / keyint_min=23 / scenecut=40 / intra_refresh=0 / rc_lookahead=50 / rc=2pass / mbtree=1 / bitrate=8259 / ratetol=1.0 / qcomp=0.60 / qpmin=0 / qpmax=69 / qpstep=4 / cplxblur=20.0 / qblur=0.5 / ip_ratio=1.40 / aq=1:1.00
Language                                 : English
Default                                  : Yes
Forced                                   : No
DURATION                                 : 02:01:18.605000000
NUMBER_OF_FRAMES                         : 174512
NUMBER_OF_BYTES                          : 7511324924
_STATISTICS_WRITING_APP                  : mkvmerge v8.0.0 ('Til The Day That I Die') 64bit
_STATISTICS_WRITING_DATE_UTC             : 2018-11-03 01:49:25
_STATISTICS_TAGS                         : BPS DURATION NUMBER_OF_FRAMES NUMBER_OF_BYTES

Audio #1
ID                                       : 2
Format                                   : AC-3
Format/Info                              : Audio Coding 3
Mode extension                           : CM (complete main)
Format settings, Endianness              : Big
Codec ID                                 : A_AC3
Duration                                 : 2h 1mn
Bit rate mode                            : Constant
Bit rate                                 : 192 Kbps
Channel(s)                               : 2 channels
Channel positions                        : Front: L R
Sampling rate                            : 48.0 KHz
Bit depth                                : 16 bits
Compression mode                         : Lossy
Delay relative to video                  : 15s 0ms
Stream size                              : 167 MiB (2%)
Language                                 : German
Default                                  : Yes
Forced                                   : Yes

Audio #2
ID                                       : 3
Format                                   : DTS
Format/Info                              : Digital Theater Systems
Mode                                     : 16
Format settings, Endianness              : Big
Codec ID                                 : A_DTS
Duration                                 : 2h 1mn
Bit rate mode                            : Constant
Bit rate                                 : 1 509 Kbps
Channel(s)                               : 6 channels
Channel positions                        : Front: L C R, Side: L R, LFE
Sampling rate                            : 48.0 KHz
Bit depth                                : 24 bits
Compression mode                         : Lossy
Delay relative to video                  : 15s 0ms
Stream size                              : 1.28 GiB (16%)
Language                                 : English
Default                                  : No
Forced                                   : No


Download:
Share Online Share OnlineShare OnlineShare Online
 

Kommentare